Bazar.cd
Ещё делаем вручную сложные MIX футболки (Ваша картинка + надпись VIP плёнкой!) ЭкСкЛюЗиВ
▼▼Новые SUPER категории ВНИЗУ ! ▼▼
КорзинаКорзина
на сумму: руб.
Вы пока ничего не выбрали
ИзбранноеИзбранное
►ВСЕ ВОПРОСЫ или ПОЖЕЛАНИЯ ►СЮДА!
В продаже (миллион) Игр, Кино, Музыки, Программ и всё в наличии!
Скидка! 20-50%

New! Поиск:
Выше можно уточнить категорию

Юрий Гуляев. Романсы Глинки и Рахманинова

Купить Юрий Гуляев. Романсы Глинки и Рахманинова в интернет магазине Bazar.cd
Увеличить
Поделитесь интересным товаром с друзьями:
Количество CD: 1 шт.

распродажа 50%
для вступивших в одну из наших групп
(Группа ВК) . . . (Группа ОК) Классическая и современная академическая музыка, Вокальная музыка (lossless), Музыка, Вокальная и хоровая музыка

Стоимость: 160 руб. 80 руб.
Добавить в избранное
Удалить из избранного
Купить (добавить в корзину) - Сейчас в наличии!
В корзине × Оформить заказ
Купить Юрий Гуляев. Романсы Глинки и Рахманинова в интернет магазине Bazar.cd

Юрий Гуляев. Романсы Глинки и Рахманинова
Жанр: Вокал
Год выпуска диска: 1994
Источник: CD-Audio
Производитель диска: Фонд русской классики им. Ю.Гуляева
Аудио кодек: APE
Тип рипа: image+.cue
Битрейт аудио: lossless
Продолжительность: 57:40
Трэклист:
Романсы Глинки:
01. В крови горит огонь желания (А.Пушкин) - 1.22
02. Признание (А.Пушкин) - 1.00
03. Ах ты, ночь ли, ноченька (A.Дельвиг) - 3.18
04. Я помню чудное мгновение (А.Пушкин) - 3.43
05. Северная звезда (Е.Растопчина) - 3.23
06. Скажи, зачем (С.Голицин) - 3.05
07. Как сладко с тобою мне быть (П.Рындин) - 3.10
08. К ней (А.Мицкевич, пер. С.Голицина) - 2.05
Романсы Рахманинова:
09. Я не пророк, соч. 21 №11 (А.Круглов) - 1.35
10. Ты помнишь ли вечер? соч. 1885г (А. Толстой) - 2.43
11. Как мне больно... соч. 21 №12 (Г.Галина) - 2.43
12. Проходит все. соч. 26 №15 (Д.Ратгауз) - 2.01
13. Не верь мне, друг. соч. 14 №7 (А. Толстой) - 1.28
14. Отрывок из Мюссе. соч. 21 №6 (пер А.Апухтина) - 2.33
15. He пой, красавица,при мне. соч. 4 №4 (А.Пушкин) - 5.05
16. Все отнял у меня. соч. 26 №2 (Ф. Тютчев) - 1.17
17. О нет, молю, не уходи, соч. 4 №1 (Д.Мережковский) - 2.04
18. Здесь хорошо, соч. 21 №7 (Г.Галина) - 2.32
19. Я опять одинок, соч. 26 №9 (Е.Шевченко, пер И.Бунина) - 2.10
20. Вчера мы встретились, соч. 26 №13 (Я.Полонский) - 3.05
21. Не может быть! соч. 34 №7 (А.Майков) - 2.36
22. Весенние воды. соч. 14 №11 (Ф. Тютчев) - 2.02
23. Письмо к Станиславскому, соч. 1908г (С.Рахманинов) - 3.15
Р.Трохман, ф-но
1,5 - 1968г. Большой зал Консерватории
2-4, 6-8, 14-18, 20-22 1978г. Большой зал Консерватории
9-13, 19, 23 1973г. Большой зал Консерватории
Доп. информация:
Романсы Глинки и Рахманинова в исполнении Юрия Гуляева (баритон)
Концертные сезоны не раз приносили певцу выдающиеся успехи в камерном репертуаре. Мастерски пользуясь всеми красками - от сочной, звучной кантилены до простого говора, он всегда стремился донести до слушателя вокально-поэтическую мысль. Чувствуется у Гуляева (особенно когда поет он русские песни либо камерный репертуар) трепетное приближение к неизбывно прекрасной певческой манере Ф. Шаляпина. Приближение бережное, уважительное, без навязчиво-нескромной попытки подражать. Напротив, Гуляеву свойственно стремление непременно создавать свою собственную интерпретацию.
Надолго запомнятся слушателям концерты Гуляева в Большом зале Консерватории, где так прекрасно, так изысканно тонко звучали романсы русских классиков. В каждом из них артист стремился создать законченную сценку, воплотить психологически достоверный персонаж со своей характерной "биографией".
С годами все чаще привлекают его романсы-размышления, романсы-раздумья. Он ищет вокальные миниатюры, необычные по жанрам. Кто бы мог подумать, что можно вот так, словно завершенное концертное сочинение, спеть всего лишь... шутливое поздравление в письме, присланное одним великим русским мастером другому ("Письмо Рахманинова к Станиславскому"). Гуляев решился и победил, создав выразительный "портрет письма" - изысканно тонкого, почтительного, дружески нежного, чуточку шутливого...
Е. Добрынина. Из кн. Певцы Большого театра СССР,
изд. "Музыка", 1978г. с. 63
...Красивый, благородный тембр голоса, с грудными обертонами, широкая кантилена, проникновенное, за душу берущее исполнение...
...Рахманинов был особенно ему близок. Как драматично звучит "Отрывок из Мюссе", а "Все отнял у меня!" Голосом рисует... "Здесь хорошо" - прекрасно! "О нет, молю, не уходи" - с какой силой душевной боли!.. "Весенние воды" - глашатай весны, радости, любни...
И. Архипова, народная артистка СССР

Отчет EAC

Exact Audio Copy V0.99 prebeta 4 from 23. January 2008
Отчёт EAC об извлечении, выполненном 14. октября 2008, 17:56
Y. Gulyaev / Glinka and Rachmaninov
Дисковод: _NEC DVD_RW ND-4550A 1.06 Adapter: 1 ID: 3
Режим чтения : Достоверность
Использование точного потока : Да
Отключение кэша аудио : Да
Использование указателей C2 : Нет
Комбинированное смещение чтения/записи : 48
Способность читать области Lead-in и Lead-out : Нет
Заполнение пропущенных сэмплов тишиной : Да
Удаление блоков с тишиной в начале и конце : Нет
При вычислениях CRC использовались нулевые сэмплы : Нет
Интерфейс : Встроенный Win32-интерфейс для Win NT/2000
Выходной формат : Monkey's Audio Lossless Encoder v3.99 DLL
Формат сэмплов : High Lossless Compression
TOC извлечённого CD
Трек | Старт | Длительность | Начальный сектор | Конечный сектор
---------------------------------------------------------------------
1 | 0:00.00 | 1:30.15 | 0 | 6764
2 | 1:30.15 | 1:01.67 | 6765 | 11406
3 | 2:32.07 | 3:20.45 | 11407 | 26451
4 | 5:52.52 | 3:44.68 | 26452 | 43319
5 | 9:37.45 | 3:22.00 | 43320 | 58469
6 | 12:59.45 | 3:06.42 | 58470 | 72461
7 | 16:06.12 | 3:10.28 | 72462 | 86739
8 | 19:16.40 | 2:08.27 | 86740 | 96366
9 | 21:24.67 | 1:34.73 | 96367 | 103489
10 | 22:59.65 | 2:41.67 | 103490 | 115631
11 | 25:41.57 | 1:55.35 | 115632 | 124291
12 | 27:37.17 | 2:01.73 | 124292 | 133439
13 | 29:39.15 | 1:27.72 | 133440 | 140036
14 | 31:07.12 | 2:32.63 | 140037 | 151499
15 | 33:40.00 | 5:05.15 | 151500 | 174389
16 | 38:45.15 | 1:16.02 | 174390 | 180091
17 | 40:01.17 | 2:02.68 | 180092 | 189309
18 | 42:04.10 | 2:31.37 | 189310 | 200671
19 | 44:35.47 | 2:09.08 | 200672 | 210354
20 | 46:44.55 | 3:04.57 | 210355 | 224211
21 | 49:49.37 | 2:35.73 | 224212 | 235909
22 | 52:25.35 | 2:01.37 | 235910 | 245021
23 | 54:26.72 | 3:13.48 | 245022 | 259544
Характеристики диапазона извлечения и сообщения об ошибках
Выбранный диапазон
Имя файла D:\Temp\Y.Gulyaev_Glinka_and_Rachmaninov.ape
Пиковый уровень 100.0 %
Качество диапазона 100.0 %
CRC теста 1803F12F
CRC копии 1803F12F
Копирование... OK
Ошибок не произошло
Конец отчёта

Обложки диска, 2,35 MB


 

Другие диски Ю. Гуляева:
Романсы П. Чайковский. А. Рубинштейн. А.Бородин. А. Доргомыжский. Н. Римский-Корсаков -

Эх, Настасья! (Фонд русской классики им. Ю.Гуляева) -

Любимые мелодии (Фонд русской классики им. Ю.Гуляева) -

Желаю вам (Фонд русской классики им. Ю.Гуляева) -

Юрий Гуляев. Наша военная молодость (Фонд русской классики им. Ю.Гуляева) -

Дивлюсь я на небо (Фонд русской классики им. Ю.Гуляева) -

Купить товар с надписью «Гуляев Юрий» (или изменить надпись «Гуляев Юрий» по вашему вкусу!)
Футболка мужская INNOVATION (имитация хлопка) белая (можно редактировать!)
Футболка мужская INNOVATION (имитация хлопка) белая (можно редактировать!) :
Стоимость: 500 руб.
Футболка мужская REDFORT (двухслойная) белая (можно редактировать!)
Футболка мужская REDFORT (двухслойная) белая (можно редактировать!) :
Стоимость: 500 руб.
Футболка женская INNOVATION (имитация хлопка) белая (можно редактировать!)
Футболка женская INNOVATION (имитация хлопка) белая (можно редактировать!) :
Стоимость: 500 руб.
Футболка женская REDFORT (двухслойная) белая (можно редактировать!)
Футболка женская REDFORT (двухслойная) белая (можно редактировать!) :
Стоимость: 500 руб.
Футболка детская INNOVATION (имитация хлопка) белая (можно редактировать!)
Футболка детская INNOVATION (имитация хлопка) белая (можно редактировать!) :
Стоимость: 500 руб.
Футболка детская REDFORT (двухслойная) белая (можно редактировать!)
Футболка детская REDFORT (двухслойная) белая (можно редактировать!) :
Стоимость: 500 руб.
Маска черная (можно редактировать!)
Маска черная (можно редактировать!) :
Стоимость: 250 руб.
Похожие товары:
 
Более миллиона дисков музыки, программ, игр, фильмов, сериалов и аудиокниг, а также слушать музыку онлайн у нас бесплатно!
Пишите нам