Bazar.cd
Ещё у нас можно музыку слушать онлайн бесплатно!
►Огромные скидки успей купить своё!
КорзинаКорзина
на сумму: руб.
Вы пока ничего не выбрали
ИзбранноеИзбранное
Онлайн 18+ ❤ Наша ХХХ гр.Вконтакте ►СЮДА!
В продаже (миллион) Игр, Кино, Музыки, Программ и всё в наличии!
Скидка! 20-50%

New! Поиск:
Также можно уточнить категорию

Crematory - ... Just Dreaming

Купить Crematory - ... Just Dreaming в интернет магазине Bazar.cd
Увеличить
Поделитесь интересным товаром с друзьями:
Количество CD: 1 шт.

Рок-музыкаЗарубежный MetalGothic Metal (lossless)
распродажа 50%
для вступивших в одну из наших групп
(Группа ВК) . . . (Группа ОК) Музыка

Стоимость: 160 руб.
Добавить в избранное
Удалить из избранного
Купить (добавить в корзину) - Сейчас в наличии!
В корзине × Оформить заказ
1 Crematory — Just Words
Купить Crematory - ... Just Dreaming в интернет магазине Bazar.cd

Crematory - ... Just Dreaming
Жанр: Death / Doom / Gothic Metal
Год выпуска диска: 1994
Производитель диска: Massacre Records, MASS CD 031
Аудио кодек: APE
Тип рипа: image+.cue
Битрейт аудио: lossless
Продолжительность: 44:50
Источник: Original CD
Трэклист:
01. Heavens Throat
02. Transmigration
03. Only Once In A Lifetime
04. Shadows Of Mine
05. I Saw The Angels Fly
06. In My Hands
07. The Instruction
08. The Prophecy
09. Dreams
10. For Those Who Believe
Felix - vocals
Lotte - guitars
Katrin - keyboards
Harald - bass
Markus - drums

Log EAC

Exact Audio Copy V0.99 prebeta 4 from 23. January 2008
EAC extraction logfile from 14. May 2009, 20:51
Crematory / Just Dreaming
Used drive  : MATSHITADVD-RAM UJ-842S   Adapter: 0  ID: 0
Read mode               : Secure
Utilize accurate stream : Yes
Defeat audio cache      : Yes
Make use of C2 pointers : No
Read offset correction                      : 102
Overread into Lead-In and Lead-Out          : No
Fill up missing offset samples with silence : Yes
Delete leading and trailing silent blocks   : No
Null samples used in CRC calculations       : Yes
Used interface                              : Native Win32 interface for Win NT & 2000
Used output format : Internal WAV Routines
Sample format      : 44.100 Hz; 16 Bit; Stereo
TOC of the extracted CD
     Track |   Start  |  Length  | Start sector | End sector
    ---------------------------------------------------------
        1  |  0:00.00 |  2:11.08 |         0    |     9832
        2  |  2:11.08 |  5:13.50 |      9833    |    33357
        3  |  7:24.58 |  3:52.17 |     33358    |    50774
        4  | 11:17.00 |  5:15.20 |     50775    |    74419
        5  | 16:32.20 |  4:54.10 |     74420    |    96479
        6  | 21:26.30 |  3:57.25 |     96480    |   114279
        7  | 25:23.55 |  4:31.13 |    114280    |   134617
        8  | 29:54.68 |  4:51.55 |    134618    |   156497
        9  | 34:46.48 |  6:09.05 |    156498    |   184177
       10  | 40:55.53 |  3:54.67 |    184178    |   201794
Range status and errors
Selected range
     Filename C:\Crematory - ...Just Dreaming\Crematory - Just Dreaming.wav
     Peak level 98.0 %
     Range quality 100.0 %
     Test CRC A683F203
     Copy CRC A683F203
     Copy OK
No errors occurred
AccurateRip summary
Track  1  cannot be verified as accurate (confidence 4)  [7D6D299C], AccurateRip returned [2534E143]
Track  2  cannot be verified as accurate (confidence 4)  [B8E2529A], AccurateRip returned [F8E12E03]
Track  3  cannot be verified as accurate (confidence 4)  [F9A6FF90], AccurateRip returned [992880DA]
Track  4  cannot be verified as accurate (confidence 4)  [C2FECCD1], AccurateRip returned [A51E2AF2]
Track  5  cannot be verified as accurate (confidence 4)  [3510A6F6], AccurateRip returned [AF218B9F]
Track  6  cannot be verified as accurate (confidence 4)  [13B77631], AccurateRip returned [3A3505ED]
Track  7  cannot be verified as accurate (confidence 4)  [36A18D35], AccurateRip returned [E31A8B36]
Track  8  cannot be verified as accurate (confidence 4)  [5C077B8F], AccurateRip returned [A82E4339]
Track  9  cannot be verified as accurate (confidence 4)  [600A762D], AccurateRip returned [A3BDAB7A]
Track 10  cannot be verified as accurate (confidence 3)  [B8273968], AccurateRip returned [3E3F2159]
No tracks could be verified as accurate
You may have a different pressing from the one(s) in the database
End of status report
Купить     Crematory - ... Just Dreaming     в интернет магазине Bazar.cd (положить в корзину!)
В корзине × Оформить заказ
Купить Crematory - ... Just Dreaming в интернет магазине Bazar.cd
Товары из этой серии:
Похожие товары:
 
Более миллиона дисков музыки, программ, игр, фильмов, сериалов и аудиокниг, а также слушать музыку онлайн у нас бесплатно!
Пишите нам
+

Введите адрес электронной почты: